Details for this torrent 


BlowBangGirls Cumshot compilation [Oral, Blowjob, Facial, 720p]
Type:
Other > Pictures
Files:
1
Size:
3.11 GiB (3337254746 Bytes)
Tag(s):
Wallpaper Picture Pics
Uploaded:
2016-11-15 07:14:04 GMT
By:
nico1899 VIP
Seeders:
5
Leechers:
2
Comments
0  

Info Hash:
1B70B123BFA75D06AA54035E677B716502936F55




(Problems with magnets links are fixed by upgrading your torrent client!)
BlowBangGirls Cumshot compilation [Oral, Blowjob, Facial, Cum shots, 720p]
 
http://ohpics.net/image/vGZO


******************************PREVIEWS******************************
 
http://ohpics.net/image/vtOo 
http://ohpics.net/image/vy9P 
http://ohpics.net/image/vLRB 
http://ohpics.net/image/vO59 
http://ohpics.net/image/vcCy 
http://ohpics.net/image/v3E4

********************************************************************


Format                                   : Matroska
Format version                           : Version 4 / Version 2
File size                                : 3.11 GiB
Duration                                 : 1 h 49 min
Overall bit rate mode                    : Variable
Overall bit rate                         : 4 061 kb/s
Encoded date                             : UTC 2016-11-06 11:08:02
Writing application                      : mkvmerge v6.9.1 ('Blue Panther') 32bit built on Apr 18 2014 18:15:44
Writing library                          : libebml v1.3.0 + libmatroska v1.4.1

Video
ID                                       : 1
Format                                   : AVC
Format/Info                              : Advanced Video Codec
Format profile                           : [email protected]
Format settings, CABAC                   : Yes
Format settings, ReFrames                : 1 frame
Codec ID                                 : V_MPEG4/ISO/AVC
Duration                                 : 1 h 49 min
Bit rate mode                            : Variable
Bit rate                                 : 3 852 kb/s
Maximum bit rate                         : 6 000 kb/s
Width                                    : 1 280 pixels
Height                                   : 720 pixels
Display aspect ratio                     : 16:9
Frame rate mode                          : Constant
Frame rate                               : 29.970 (30000/1001) FPS
Color space                              : YUV
Chroma subsampling                       : 4:2:0
Bit depth                                : 8 bits
Scan type                                : Progressive
Bits/(Pixel*Frame)                       : 0.139
Stream size                              : 2.95 GiB (95%)
Default                                  : Yes
Forced                                   : No

Audio
ID                                       : 2
Format                                   : AC-3
Format/Info                              : Audio Coding 3
Mode extension                           : CM (complete main)
Format settings, Endianness              : Big
Codec ID                                 : A_AC3
Duration                                 : 1 h 49 min
Bit rate mode                            : Constant
Bit rate                                 : 128 kb/s
Channel(s)                               : 2 channels
Channel positions                        : Front: L R
Sampling rate                            : 44.1 kHz
Frame rate                               : 28.711 FPS (1536 spf)
Compression mode                         : Lossy
Stream size                              : 100 MiB (3%)
Default                                  : Yes
Forced                                   : No